скачать торрент трекер Friends
 
 Главная  •  Торренты  •  Новые релизы  •  Форум  •   •  Персоны кино  •  Правила  •  ЧаВо

Язык интерфейса
Язык интерфейса:


Привет, Гость
[15] из [15]
Введите Логин:
Введите Пароль:
Регистрация
Восстановить Пароль

Линки
АнекдотыБанкоматВсе теги / меткиДополнительные услугиТехподдержка

Главное Меню
 Главная Торренты Релизы за сегодня Персоны кино Запросы / Предложения (3) Правила ЧаВо Проверка BB кодов Топ 10 Архив новостей Прошлые опросы Форматы файлов Группы Последние комментарии Техподдержка

:: Детали раздачи
Торрент раздача является мультитрекерной — учтите, количество раздающих не будет совпадать с количеством участников на сайте (скачивание на клиентской стороне зависит от настроек uTorrent клиент программы, настройки -> Включить DHT, Обмен пирами и Поиск лок-х пиров).
Если висит надпись, пиры по нулям - не бойтесь, возможность скачать повторно торрент раздачу - есть. Попробуйте, в случае отказа - прокоментируйте или нажмите на "Позвать скачавших".

На рубеже. Ответный удар / Серии: 1-4 из 4 (Алексей Молочник) [2014, Боевик, DVB] :: RuTracker.org

Скачать
Магнет
ПомощьКак скачать раздачу
Поделиться
Теги / Меткибоевик
Постер
ОписаниеГод выпуска: 2014
Производство: "Никола-фильм" по заказу НТВ
Жанр: Боевик
Продолжительность: ~0:42:00 серия
Субтитры: нет

Режиссёр: Алексей Молочник

В ролях: Андрей Федорцов, Максим Павлов, Родион Галюченко, Николай Чиндяйкин, Роман Курцын, Керим Магомедов, Антон Юрьев, Игорь Ботвин, Игорь Михайлов

Описание: Молодой капитан-пограничник Тимофей Смолин во время службы на Северном Кавказе был ранен, а после лечения получил назначение в «спокойный» регион — на северо-западную государственную границу. Несмотря на теплый прием со стороны нового начальника — майора Зимина, Тимофей не спешит радоваться переводу на тихую заставу. Будучи офицером по призванию, Смолин уверен, что его опыт гораздо нужнее на старом месте. Привыкший к реальным угрозам и постоянному риску, он относится к работе очень серьезно, даже ревностно, что сразу привлекает внимание его коллег. Однако довольно быстро выясняется, что и здесь есть место настоящему подвигу...

Все раздачи сериала: На рубеже. Ответный удар

http://i29.fastpic.ru/big/2011/1030/ea/b1cf2ef64e49d1b69670beab9a74f7ea.png

Качество: DVB
Формат: MPEG-TS
Видео кодек: MPEG2
Аудио кодек: MPEG1
Видео: MPEG2 Video 1024х576 @ 720x576 (16:9) 25.00fps ~5788 Kbps (0.558 bit/pixel)
Аудио: MPEG Audio 48000Hz 2 channels 256 Кбит/сек

Сторонней рекламы нет!

MediaInfo


ОбщееИдентификатор : 1 (0x1)Полное имя : H:\ФИЛЬМЫ\На рубеже. Ответный ударе DVB\На рубеже. Ответный ударе 01_серия_DVB.tsФормат : MPEG-TSРазмер файла : 1,90 ГбайтПродолжительность : 42 м.Режим общего битрейта : ПеременныйОбщий поток : 6361 Кбит/сек

ВидеоИдентификатор : 69 (0x45)Идентификатор меню : 1 (0x1)Формат : MPEG VideoВерсия формата : Version 2Профиль формата : Main@MainПараметр BVOP формата : ДаПараметр матрицы формата : ВыборочнаяПараметр GOP формата : M=3, N=15Идентификатор кодека : 2Продолжительность : 42 м.Вид битрейта : ПеременныйБитрейт : 5788 Кбит/секМаксимальный битрейт : 7000 Кбит/секШирина : 720 пикселейВысота : 576 пикселейСоотношение сторон : 16:9Частота кадров : 25,000 кадров/секСтандарт вещания : PALЦветовое пространство : YUVСубдискретизация насыщенности : 4:2:0Битовая глубина : 8 битТип развёртки : ПрогрессивнаяПорядок развёртки : Нижнее поле первоеМетод сжатия : С потерямиБит/(Пиксели*Кадры) : 0.558Размер потока : 1,73 Гбайт (91%)

АудиоИдентификатор : 68 (0x44)Идентификатор меню : 1 (0x1)Формат : MPEG AudioВерсия формата : Version 1Профиль формата : Layer 2Идентификатор кодека : 3Продолжительность : 42 м.Вид битрейта : ПостоянныйБитрейт : 256 Кбит/секКаналы : 2 каналаЧастота : 48,0 КГцМетод сжатия : С потерямиРазмер потока : 78,3 Мбайт (4%)Язык : English


Раздача группы: http://savepic.su/3981179.png

Отдельное спасибо [b]wowa63[/b] за предоставление материала.

Внимание ! Раздача ведётся путём добавления новых серий
Внимание! Раздача ведётся путём добавления новых серий; при каждом добавлении создётся новый торрент. Чтобы начать докачку новой серии, пользователям необходимо сделать следующее:
(1) остановить скачивание,
(2) удалить старый торрент у себя из клиента (старые серии удалять не надо),
(3) скачать новый торрент и запустить его у себя в клиенте вместо старого, при этом указать клиенту путь в старую папку куда и должно происходить скачивание новых серий.
Ваш клиент при этом должен произвести хеширование (проверку) старой папки (если не производит сам - помогите ему сделать это), и будет докачивать только те серии которых у вас ещё нет. Старые серии при этом не удаляются, а продолжают раздаваться!
Eсли вы уже удалили старые серии, то предотвратить повторную закачку старых серий можно, отжав галочку в соответсвующих местах при запуске нового торрента. По возможности, желательно не удалять старые серии как можно дольше чтобы релизёр не столько продолжал раздавать старые серии, а смог сконцентрироваться на новых.

ВНИМАНИЕ! ТОРРЕНТ ПЕРЕЗАЛИТ! ДОБАВЛЕНА 3-ая - 4-ая СЕРИИ!

Скриншоты
http://s43.radikal.ru/i101/1405/5f/7efe018beee3t.jpg http://s019.radikal.ru/i616/1405/3e/56cb358e04cdt.jpg http://i058.radikal.ru/1405/b4/b817b94b78e1t.jpg http://s57.radikal.ru/i158/1405/7c/f79b25bc2abet.jpg

http://i17.fastpic.ru/big/2011/0302/93/84d6588c7f6e1cc66b53d3103e74fa93.gif[/img][img]http://s60.radikal.ru/i170/1007/6a/664e8d89abdf.gif
Скриншоты
Похожие файлы
Загрузка / Обновление
КатегорияСериалы RSS лента
Просмотров445 раз (a)
Взят12 раз (a)
Файлы4
Размер6.83 GB (7,331,862,008 байт)
ТраффикСкачано: 6.83 GB, Отдано: 1.60 GB
Добавлен
РаздалViKa  (Искать торренты)
Участники
Участники - Загрузка / Обновление
Просматривают Просматривают Загрузка...

-†- ¿? -†-
« Предыдущая - † Страница † - Следующая »

:: Список Комментариев
Нет комментариев.

 Нет комментариев
Вам запрещенно редактировать, создать или удалять комментарии.
shpv© 2007-2014
Страничка сформирована за 0.803 секунд.
Яндекс.Метрика Rambler's Top100