скачать торрент трекер Friends
 
 Главная  •  Торренты  •  Новые релизы  •  Форум  •   •  Персоны кино  •  Правила  •  ЧаВо

Язык интерфейса
Язык интерфейса:


Привет, Гость
[15] из [15]
Введите Логин:
Введите Пароль:
Регистрация
Восстановить Пароль

Линки
АнекдотыБанкоматВсе теги / меткиДополнительные услугиТехподдержка

Главное Меню
 Главная Торренты Релизы за сегодня Персоны кино Запросы / Предложения (3) Правила ЧаВо Проверка BB кодов Топ 10 Архив новостей Прошлые опросы Форматы файлов Группы Последние комментарии Техподдержка

:: Детали раздачи
Торрент раздача является мультитрекерной — учтите, количество раздающих не будет совпадать с количеством участников на сайте (скачивание на клиентской стороне зависит от настроек uTorrent клиент программы, настройки -> Включить DHT, Обмен пирами и Поиск лок-х пиров).
Если висит надпись, пиры по нулям - не бойтесь, возможность скачать повторно торрент раздачу - есть. Попробуйте, в случае отказа - прокоментируйте или нажмите на "Позвать скачавших".

Таксистка 1, 2, 3, 4 (Ольга Музалева) [2003-2007, ироническая мелодрама, комедия, DVDRip] :: RuTracker.org

Скачать
Магнет
ПомощьКак скачать раздачу
Поделиться
Теги / Меткиироническая мелодрама, комедия
Постер
Описаниеhttp://i63.fastpic.ru/thumb/2014/0827/5c/d1723305dec492fdc054841f60d6c95c.jpeg http://i63.fastpic.ru/thumb/2014/0827/6f/75123606a28da340f2df8c5cfe2b436f.jpeg http://i63.fastpic.ru/thumb/2014/0827/2a/7c52f6608c20d8146db5d195f171ef2a.jpeg

Страна: Россия
Производство: "Новый Русский Сериал"
Жанр: ироническая мелодрама, комедия
Год выпуска: 2003 - 2007
Продолжительность: 48 х ~00:46:00
Субтитры: нет

Режиссер: Ольга Музалева

В ролях: Людмила Артемьева, Татьяна Рудина, Александр Чернявский, Екатерина Голубова, Анастасия Киндрук, Евгений Крайнов, Андрей Рапопорт, Александра Назарова, Галина Стаханова, Валерий Жуков

Описание: Главная героиня сериала Надя — одинокая мать с тремя детьми, у которой весьма непопулярная в наше время профессия педагога-организатора во Дворце пионеров. Поэтому она вынуждена зарабатывать на жизнь частным извозом. В свои сорок лет Надя не спешит еще раз связать себя брачными узами — лучше быть одной, чем жить непонятой с нелюбимым, черствым человеком. Хотя в тайне она мечтает влюбиться и найти своего мужчину, на которого можно опереться. А пока нужно крутиться и крутить баранку — если ты не устроен в жизни, это еще не повод для отчаяния, ведь все находится в твоих руках и у каждого человека есть шанс исправить свое положение. Тем более, что неожиданный случай свел ее с человеком, который обратил на нее внимание… Надежда мчится по городским проспектам навстречу непредвиденным событиям. Головокружительный роман и отпуск за границей. Беззаботная жизнь на Рублевке и финансовые трудности. Козни завистниц и вынужденная разлука с любимым. Никакие умопомрачительные повороты судьбы не в силах изменить характер Нади! Ей не ведома депрессия, ведь она не представляет, как можно сидеть без дела. Неунывающая таксистка убеждена: счастье не в деньгах, а в том, чтобы рядом были близкие люди, на которых всегда можно опереться!

[img]http://www.kinopoisk.ru/rating/460511.gif[/img]|[img]http://www.kinopoisk.ru/rating/460497.gif[/img]|[img]http://www.kinopoisk.ru/rating/466472.gif" alt="http://www.kinopoisk.ru/rating/423986.gif[/img]|[img]http://www.kinopoisk.ru/rating/460511.gif[/img]|[img]http://www.kinopoisk.ru/rating/460497.gif[/img]|[img]http://www.kinopoisk.ru/rating/466472.gif" />

Качество видео: DVDRip
Формат видео: AVI
Видео кодек: XviD
Аудио кодек: MP3
Видео: 640x480 (1.33:1), 25 fps, XviD build 65 ~1559 kbps avg, 0.20 bit/pixel
Аудио: 48 kHz, MP3, 2 ch, ~128.00 kbps

Все раздачи сериала

Таксистка


Отчет MI


GeneralComplete name : Taksistka_1.2.4_Olu6ka\1-01.aviFormat : AVIFormat/Info : Audio Video InterleaveFile size : 559 MiBDuration : 46mn 1sOverall bit rate : 1 698 KbpsWriting library : VirtualDub build 32507/release

VideoID : 0Format : MPEG-4 VisualFormat profile : Advanced Simple@L5Format settings, BVOP : 1Format settings, QPel : NoFormat settings, GMC : No warppointsFormat settings, Matrix : CustomCodec ID : XVIDCodec ID/Hint : XviDDuration : 46mn 1sBit rate : 1 560 KbpsWidth : 640 pixelsHeight : 480 pixelsDisplay aspect ratio : 4:3Frame rate : 25.000 fpsColor space : YUVChroma subsampling : 4:2:0Bit depth : 8 bitsScan type : ProgressiveCompression mode : LossyBits/(Pixel*Frame) : 0.203Stream size : 513 MiB (92%)Writing library : XviD 65

AudioID : 1Format : MPEG AudioFormat version : Version 1Format profile : Layer 3Mode : Joint stereoMode extension : MS StereoCodec ID : 55Codec ID/Hint : MP3Duration : 46mn 1sBit rate mode : ConstantBit rate : 128 KbpsChannel count : 2 channelsSampling rate : 48.0 KHzCompression mode : LossyStream size : 42.1 MiB (8%)Alignment : Split accross interleavesInterleave, duration : 40 ms (1.00 video frame)Interleave, preload duration : 500 ms


Сэмпл
Продолжительность: 12 х ~00:46:00
Видео: 640x480 (1.33:1), 25 fps, XviD build 65 ~1560 kbps avg, 0.20 bit/pixel
Аудио: 48 kHz, MP3, 2 ch, ~128.00 kbps


http://i63.fastpic.ru/big/2014/0828/60/8aafcd178c692d70e0c36b23562b8b60.jpg
http://i68.fastpic.ru/big/2014/0828/02/a53db7bfee7aa47223fd47311138a502.jpg
http://i68.fastpic.ru/big/2014/0828/1c/a81a32b8ee439eb81afa7271752bdf1c.jpg
http://i65.fastpic.ru/big/2014/0828/70/08135be1001df265d0615dcd4f41b870.jpg
http://i67.fastpic.ru/big/2014/0828/9e/412bc8442bb244aefb99a6f2a115579e.jpg
http://i66.fastpic.ru/big/2014/0828/02/25c210688c22c4b8cf15a12bd8831102.jpg
http://i66.fastpic.ru/big/2014/0828/0e/a2ae67e980e327f43a66d05cb35cd70e.jpg
http://i65.fastpic.ru/big/2014/0828/78/d6f0b6f5fc6c99c656177475d4fb9478.jpg
http://i64.fastpic.ru/big/2014/0828/a3/1b51bf2e7acdb029d1dfc68bf69bcba3.jpg
http://i66.fastpic.ru/big/2014/0828/0c/ab5d7eb24f2f89de2a96a97e9bb26d0c.jpg






Таксистка 2


Отчет MI


GeneralComplete name : \Taksistka_1.2.4_Olu6ka\2-01.aviFormat : AVIFormat/Info : Audio Video InterleaveFile size : 553 MiBDuration : 45mn 32sOverall bit rate : 1 698 KbpsMovie name : 2

VideoID : 0Format : MPEG-4 VisualFormat profile : Advanced Simple@L5Format settings, BVOP : 1Format settings, QPel : NoFormat settings, GMC : No warppointsFormat settings, Matrix : CustomCodec ID : XVIDCodec ID/Hint : XviDDuration : 45mn 32sBit rate : 1 560 KbpsWidth : 640 pixelsHeight : 480 pixelsDisplay aspect ratio : 4:3Frame rate : 25.000 fpsColor space : YUVChroma subsampling : 4:2:0Bit depth : 8 bitsScan type : ProgressiveCompression mode : LossyBits/(Pixel*Frame) : 0.203Stream size : 508 MiB (92%)Writing library : XviD 65

AudioID : 1Format : MPEG AudioFormat version : Version 1Format profile : Layer 3Mode : Joint stereoMode extension : MS StereoCodec ID : 55Codec ID/Hint : MP3Duration : 45mn 31sBit rate mode : ConstantBit rate : 128 KbpsChannel count : 2 channelsSampling rate : 48.0 KHzCompression mode : LossyStream size : 41.7 MiB (8%)Alignment : Split accross interleavesInterleave, duration : 40 ms (1.00 video frame)Interleave, preload duration : 500 ms


Сэмпл
Продолжительность: 12 х ~00:46:00
Видео: 640x480 (1.33:1), 25 fps, XviD build 65 ~1560 kbps avg, 0.20 bit/pixel
Аудио: 48 kHz, MP3, 2 ch, ~128.00 kbps
http://i66.fastpic.ru/big/2014/0802/9e/3765cd7496bf2c0a5d8e89560ec9e69e.jpg
http://i68.fastpic.ru/big/2014/0802/ef/573b697fe58269277288a129d8e16aef.jpg
http://i65.fastpic.ru/big/2014/0802/9d/a9be5742d3e200a5b41fc10979a9659d.jpg
http://i66.fastpic.ru/big/2014/0802/7e/6fd5b5a221764d46a4f898855ed2987e.jpg
http://i67.fastpic.ru/big/2014/0802/66/08d25f1ad96b508386734ccac87a3c66.jpg
http://i65.fastpic.ru/big/2014/0802/db/d66fab402d9f06cef910b8d2be5201db.jpg
http://i67.fastpic.ru/big/2014/0802/73/dc3958141be68d794d605ed81cac9473.jpg
http://i68.fastpic.ru/big/2014/0802/3e/0743cbdf7538ae4bcb97278c438d343e.jpg
http://i66.fastpic.ru/big/2014/0802/97/39f8aabd39010d9564f3fc95dc64f297.jpg
http://i67.fastpic.ru/big/2014/0802/da/56cfadbbbe9775c08afaffd742b44eda.jpg






Таксистка 3


Отчет MI


GeneralComplete name : Taksistka_1.2.4_Olu6ka\3-02.aviFormat : AVIFormat/Info : Audio Video InterleaveFile size : 556 MiBDuration : 45mn 51sOverall bit rate : 1 696 KbpsWriting application : VirtualDubMod 1.5.10.3Writing library : VirtualDubMod build 2550/release

VideoID : 0Format : MPEG-4 VisualFormat profile : Advanced Simple@L5Format settings, BVOP : 1Format settings, QPel : NoFormat settings, GMC : No warppointsFormat settings, Matrix : CustomCodec ID : XVIDCodec ID/Hint : XviDDuration : 45mn 51sBit rate : 1 558 KbpsWidth : 640 pixelsHeight : 480 pixelsDisplay aspect ratio : 4:3Frame rate : 25.000 fpsColor space : YUVChroma subsampling : 4:2:0Bit depth : 8 bitsScan type : ProgressiveCompression mode : LossyBits/(Pixel*Frame) : 0.203Stream size : 511 MiB (92%)Writing library : XviD 65

AudioID : 1Format : MPEG AudioFormat version : Version 1Format profile : Layer 3Codec ID : 55Codec ID/Hint : MP3Duration : 45mn 51sBit rate mode : ConstantBit rate : 128 KbpsChannel count : 2 channelsSampling rate : 48.0 KHzCompression mode : LossyStream size : 42.0 MiB (8%)Alignment : Aligned on interleavesInterleave, duration : 40 ms (1.00 video frame)Interleave, preload duration : 504 msWriting library : LAME3.99rEncoding settings : -m s -V 4 -q 2 -lowpass 17 -b 128


Сэмпл
Продолжительность: 12 х ~00:46:00
Видео: 640x480 (1.33:1), 25 fps, XviD build 65 ~1558 kbps avg, 0.20 bit/pixel
Аудио: 48 kHz, MP3, 2 ch, ~128.00 kbps
http://i64.fastpic.ru/big/2014/0829/fe/56b1c14feee83c193c47bb3942acb2fe.jpg
http://i63.fastpic.ru/big/2014/0829/3f/27043359de738c14571e9f6e41ef4e3f.jpg
http://i65.fastpic.ru/big/2014/0829/43/ea40b50777e4f875e7ed80e591960243.jpg
http://i67.fastpic.ru/big/2014/0829/0f/a35517db1b23cf94a7527e6cd22e290f.jpg
http://i66.fastpic.ru/big/2014/0829/b0/09a0efb3bc49ab387bd1f6638b6b47b0.jpg
http://i66.fastpic.ru/big/2014/0829/87/701584b5e6533b516c305ef152d36487.jpg
http://i65.fastpic.ru/big/2014/0829/56/607813883929cb5994eb872f55468056.jpg
http://i67.fastpic.ru/big/2014/0829/98/6e79cf0c41168cf347993e0d024f0598.jpg
http://i63.fastpic.ru/big/2014/0829/47/a5337837687dac83340f26c6bc977f47.jpg
http://i63.fastpic.ru/big/2014/0829/8a/8437685df47cbf48cf58859de695e88a.jpg






Таксистка 4


Отчет MI


GeneralComplete name : Taksistka_1.2.4_Olu6ka\4-01.aviFormat : AVIFormat/Info : Audio Video InterleaveFile size : 558 MiBDuration : 45mn 57sOverall bit rate : 1 697 KbpsWriting application : VirtualDubModRus 1.5.10.2 (build 2542/release)Writing library : VirtualDubMod build 2542/release

VideoID : 0Format : MPEG-4 VisualFormat profile : Advanced Simple@L5Format settings, BVOP : 1Format settings, QPel : NoFormat settings, GMC : No warppointsFormat settings, Matrix : CustomCodec ID : XVIDCodec ID/Hint : XviDDuration : 45mn 57sBit rate : 1 559 KbpsWidth : 640 pixelsHeight : 480 pixelsDisplay aspect ratio : 4:3Frame rate : 25.000 fpsColor space : YUVChroma subsampling : 4:2:0Bit depth : 8 bitsScan type : ProgressiveCompression mode : LossyBits/(Pixel*Frame) : 0.203Stream size : 513 MiB (92%)Writing library : XviD 65

AudioID : 1Format : MPEG AudioFormat version : Version 1Format profile : Layer 3Mode : Joint stereoMode extension : MS StereoCodec ID : 55Codec ID/Hint : MP3Duration : 45mn 57sBit rate mode : ConstantBit rate : 128 KbpsChannel count : 2 channelsSampling rate : 48.0 KHzCompression mode : LossyStream size : 42.1 MiB (8%)Alignment : Split accross interleavesInterleave, duration : 40 ms (1.00 video frame)Interleave, preload duration : 500 ms


Сэмпл
Продолжительность: 12 х ~00:46:00
Видео: 640x480 (1.33:1), 25 fps, XviD build 65 ~1559 kbps avg, 0.20 bit/pixel
Аудио: 48 kHz, MP3, 2 ch, ~128.00 kbps
http://i68.fastpic.ru/big/2014/0828/5e/a3bdf2ee0b5711f83a6e4d288aec205e.jpg
http://i67.fastpic.ru/big/2014/0828/9a/dcfac9dc88d1ee074ba9ad0adefd5a9a.jpg
http://i63.fastpic.ru/big/2014/0828/9b/3289871fd31e37662174715e34e7599b.jpg
http://i65.fastpic.ru/big/2014/0828/12/b8a02b359042f72bec7bee2ec3afcd12.jpg
http://i67.fastpic.ru/big/2014/0828/35/ba8996cdba5fdd2af06aece748fe9b35.jpg
http://i65.fastpic.ru/big/2014/0828/ff/6e59af08e5ce70b0a97699b75649b5ff.jpg
http://i64.fastpic.ru/big/2014/0828/d8/163df7c99aa1f544e25d7e5f7d34cbd8.jpg
http://i67.fastpic.ru/big/2014/0828/0e/411fd4291358e232ef7fdb4ff16a850e.jpg
http://i63.fastpic.ru/big/2014/0828/6f/477d7883dfbc78f72e99639d522a2e6f.jpg
http://i68.fastpic.ru/big/2014/0828/28/7d9949c0ebf7f9521ab2019a61fa5528.jpg
http://i67.fastpic.ru/big/2014/0828/18/b030966aa036663e440fd4fc4f2b9d18.jpg



Сравнение

Таксистка
Неудачно подобран деинтерлейс ("лишние кадры"), даже на ключевых кадрах практически невозможно добиться совпадения кадров
http://screenshotcomparison.com/comparison/89356/picture:4



Таксистка 2
та же проблема "лишних" кадров
http://screenshotcomparison.com/comparison/86125/
4 кадра подряд
http://screenshotcomparison.com/comparison/86124/
3 кадра подряд
http://screenshotcomparison.com/comparison/86126/



Таксистка 3
http://screenshotcomparison.com/comparison/89442/
неудачный деинтерлейс, недокроп



Таксистка 4 - SATRip
http://screenshotcomparison.com/comparison/89353
другой исходник

Релиз от группы http://static.rutracker.org/ranks/rg_torrents_logo.gif
Скриншоты
Похожие файлы
Загрузка / Обновление
КатегорияСериалы RSS лента
Просмотров271 раз (a)
Взят1 раз (a)
Файлы48
Размер26.26 GB (28,194,266,278 байт)
Добавлен
РаздалViKa  (Искать торренты)
Участники
Участники - Загрузка / Обновление
Просматривают Просматривают Загрузка...

-†- ¿? -†-
« Предыдущая - † Страница † - Следующая »

:: Список Комментариев
Нет комментариев.

 Нет комментариев
Вам запрещенно редактировать, создать или удалять комментарии.
shpv© 2007-2014
Страничка сформирована за 0.061 секунд.
Яндекс.Метрика Rambler's Top100