скачать торрент трекер Friends
 
 Главная  •  Торренты  •  Новые релизы  •  Форум  •   •  Персоны кино  •  Правила  •  ЧаВо

Язык интерфейса
Язык интерфейса:


Привет, Гость
[15] из [15]
Введите Логин:
Введите Пароль:
Регистрация
Восстановить Пароль

Линки
АнекдотыБанкоматВсе теги / меткиДополнительные услугиТехподдержка

Главное Меню
 Главная Торренты Релизы за сегодня Персоны кино Запросы / Предложения (3) Правила ЧаВо Проверка BB кодов Топ 10 Архив новостей Прошлые опросы Форматы файлов Группы Последние комментарии Техподдержка

:: Детали раздачи

Мент в законе 8 / Серии: 1-24 из 24 (Владислав Николаев) [2014, Россия, Детектив, SATRip] :: RuTracker.org

Скачать
Магнет
ПомощьКак скачать раздачу
Поделиться
Теги / Меткидетектив
Постер
ОписаниеПроизводитель : Россия, студия Центр кинопроизводства" по заказу ООО «Форвард-Фильм»
Жанр: Детектив
Год выпуска: 2014
Продолжительность: 45 мин.
Cубтитры: нет

Режиссер: Юрий Попович, Игорь Ромащенко, Давид Ройтберг
В ролях: Сергей Плотников (II), Михаил Бабичев, Антон Сёмкин, Сергей Пиотровский, Ирина Темичева, Ника Балина, Павел Савчук, Иван Литвинов, Василий Мичков, Андрей Рогожин, Дмитрий Косенкин, Дмитрий Артаев, Игорь Серебряный, Юлия Яблонская, Константин Глушков, Дмитрий Блохин, Иван Соловьев (III), Дмитрий Варшавский, Александр Сухинин, Станислав Эвентов, Мария Портнова, Михаил Филиппов, Евгений Булдаков, Александра Панкратова, Александра Булычёва, Владимир Чуприков, Анастасия Дубровина, Эльмира Мирэль, Семён Литвинов, Иван Иванов (V), Денис Дружинин, Федор Румянцев, Марина Барсукова, Никита Тезов
Описание: В новом сезоне преступный мир Битово переживает второе рождение. Но, несмотря на накал криминальной ситуации, Круча и его оперативники справятся с любыми преступлениями.
Сафрон (Константин Глушков), выйдя из комы, объявляет, что будет руководить районом сам, но – опосредованно, через сына Егора (Иван Соловьёв). Однако Чарлик (Дмитрий Блохин), до сих пор бывший правой рукой Сафрона, недоволен тем, что оказался в подчинении у пацана. Чарлик подговаривает авторитетов убрать Егора с поста смотрящего. На фоне этого в Битово как всегда происходят серьёзные и запутанные преступления, в том числе и убийство совладельцев брачного агентства, отправлявшего девушек в рабство за границу; крупные автостраховые мошенничества со смертельным исходом и многое другое. Но, несмотря на крутизну новых дел и накал криминальной ситуации, Круча (Сергей Плотников) и его оперативники справятся с любыми преступлениями.

Доп. информация: Релиз группа http://img23.binimage.org/7d/b4/82/banner144.gif[/img][img]http://s56.radikal.ru/i152/0905/99/5f5d3bf12488.gif[/img][img]http://i038.radikal.ru/1
312/6f/3c3564f00ec6.png
http://static.rutracker.org/smiles/icon_arrow.gif
Все раздачи сериала
http://static.rutracker.org/smiles/icon_arrow.gif
Сэмпл

Качество: SATRip
Формат: AVI
Видео кодек: XviD
Аудио кодек: AC3
Видео: 720x400 (1.80:1), 25 fps, XviD build 50 ~1548 kbps avg, 0.22 bit/pixel
Аудио: 48 kHz, AC3 Dolby Digital, 2/0 (L,R) ch, ~192.00 kbps avg

MI
General
Complete name : Z:\раздачи\Мент.в.законе-8.(01.seriya).2014.XviD.SATRip.RG.Russkie.serialy.&.Files-x.avi
Format : AVI
Format/Info : Audio Video Interleave
File size : 550 MiB
Duration : 45mn 58s
Overall bit rate : 1 673 Kbps
Writing application : VirtualDubMod 1.5.10.3 | www.virtualdub-fr.org || (build 2550/release)
Writing library : VirtualDubMod build 2550/release

Video
ID : 0
Format : MPEG-4 Visual
Format profile : Advanced Simple@L5
Format settings, BVOP : Yes
Format settings, QPel : No
Format settings, GMC : No warppoints
Format settings, Matrix : Default (H.263)
Codec ID : XVID
Codec ID/Hint : XviD
Duration : 45mn 58s
Bit rate : 1 472 Kbps
Width : 720 pixels
Height : 400 pixels
Display aspect ratio : 16:9
Frame rate : 25.000 fps
Color space : YUV
Chroma subsampling : 4:2:0
Bit depth : 8 bits
Scan type : Progressive
Compression mode : Lossy
Bits/(Pixel*Frame) : 0.204
Stream size : 484 MiB (88%)
Writing library : XviD 1.2.1 (UTC 2008-12-04)

Audio
ID : 1
Format : AC-3
Format/Info : Audio Coding 3
Mode extension : CM (complete main)
Format settings, Endianness : Big
Codec ID : 2000
Duration : 45mn 58s
Bit rate mode : Constant
Bit rate : 192 Kbps
Channel(s) : 2 channels
Channel positions : Front: L R
Sampling rate : 48.0 KHz
Bit depth : 16 bits
Compression mode : Lossy
Stream size : 63.1 MiB (11%)
Alignment : Split accross interleaves
Interleave, duration : 40 ms (1.00 video frame)
Interleave, preload duration : 500 ms


Внимание! Раздача ведётся путём добавления новых серий!
Внимание! Раздача ведётся путём добавления новых серий
Внимание! Раздача ведётся путём добавления новых серий; при каждом добавлении создётся новый торрент.
Чтобы начать докачку новой серии, пользователям необходимо сделать следующее:
1) остановить скачивание
2) удалить старый торрент у себя из клиента (старые серии удалять не надо)
3) скачать новый торрент и запустить его у себя в клиенте вместо старого, при этом указать клиенту путь в старую папку куда и должно происходить скачивание новых серий.
Ваш клиент при этом должен произвести хеширование (проверку) старой папки (если не производит сам - помогите ему сделать это), и будет докачивать только те серии которых у вас ещё нет. Старые серии при этом не удаляются, а продолжают раздаваться!
Eсли вы уже удалили старые серии, то предотвратить повторную закачку старых серий можно, отжав галочку в соответствовавших местах при запуске нового торрента.


Скриншоты
http://s018.radikal.ru/i504/1408/7e/e04c375b322c.jpg
http://s019.radikal.ru/i609/1408/00/2f54b65ee6cc.jpg
http://s010.radikal.ru/i313/1408/e8/9cdc253ebb13.jpg
http://i065.radikal.ru/1408/b4/7673913cd0d2.jpg
Скриншоты
Похожие файлы
Загрузка / Обновление
КатегорияСериалы RSS лента
Просмотров268 раз (a)
Взят11 раз (a)
Файлы24
Размер12.89 GB (13,839,377,346 байт)
Добавлен
РаздалViKa  (Искать торренты)
Участники
Участники - Загрузка / Обновление
Просматривают Просматривают Загрузка...

-†- ¿? -†-
« Предыдущая - † Страница † - Следующая »

:: Список Комментариев
Нет комментариев.

 Нет комментариев
Вам запрещенно редактировать, создать или удалять комментарии.
shpv© 2007-2014
Страничка сформирована за 0.342 секунд.
Яндекс.Метрика Rambler's Top100