скачать торрент трекер Friends
 
 Главная  •  Торренты  •  Новые релизы  •  Форум  •   •  Персоны кино  •  Правила  •  ЧаВо

Язык интерфейса
Язык интерфейса:


Привет, Гость
[15] из [15]
Введите Логин:
Введите Пароль:
Регистрация
Восстановить Пароль

Линки
АнекдотыБанкоматВсе теги / меткиДополнительные услугиТехподдержка

Главное Меню
 Главная Торренты Релизы за сегодня Персоны кино Запросы / Предложения (3) Правила ЧаВо Проверка BB кодов Топ 10 Архив новостей Прошлые опросы Форматы файлов Группы Последние комментарии Техподдержка

:: Детали раздачи
Торрент раздача является мультитрекерной — учтите, количество раздающих не будет совпадать с количеством участников на сайте (скачивание на клиентской стороне зависит от настроек uTorrent клиент программы, настройки -> Включить DHT, Обмен пирами и Поиск лок-х пиров).
Если висит надпись, пиры по нулям - не бойтесь, возможность скачать повторно торрент раздачу - есть. Попробуйте, в случае отказа - прокоментируйте или нажмите на "Позвать скачавших".

Гадкий утенок

Скачать
Магнет
ПомощьКак скачать раздачу
Поделиться
Теги / Меткимюзикл, мультфильм
Постер
ОписаниеГадкий утенок
Страна: Россия
Жанр: мюзикл, мультфильм
Длительность: 01:15:37
Год выпуска: 2010
Перевод: Оригинал
Русские субтитры: нет
Режиссёр: Гарри Бардин
Роли озвучивали: Светлана Степченко, Владимир Спиваков, Константин Райкин, Армен Джигарханян, Юлия Рутберг, Владимир Качан
Описание: Странного вида утенок вылупляется из необычного яйца на птичьем дворе. Непохожий на других утят. Все домашние птицы находят его уродливым. В нашем фильме это будет пластилиновый утенок, в то время, как другие домашние птицы: гуси, утки, индейки будут в перьях.
Technical Specs: Blu-ray, BD-25 Single-Layer Disc
Качество: Blu-ray disc
Формат: BDMV
Видео: MPEG-4 AVC Video, 29999 kbps, 1080p / 24 fps / 16:9 / High Profile 4.1
Аудио: Russian DTS-HD Master Audio, 2062 kbps, 5.1 / 48 kHz / 2062 kbps /
Аудио 2: Russian Dolby Digital Audio, 384 kbps, 5.1 / 48 kHz / 384 kbps
Субтитры: Отсутсвуют

http://i12.fastpic.ru/thumb/2010/1118/76/34f8285a9ff86dc42acd06da56fb5f76.jpeg http://i12.fastpic.ru/thumb/2010/1118/c8/68c92c37b6784455f39b1474f5c840c8.jpeg http://i12.fastpic.ru/thumb/2010/1118/e9/f3ecd423e7ba936d1f6a1c8181ab37e9.jpeg
Скриншоты меню

BDInfo

Код:DISC INFO:
Disc Title: GADKIY_DUCK
Disc Size: 23 822 356 044 bytes
Protection: AACS
BD-Java: No
BDInfo: 0.5.6
PLAYLIST REPORT:
Name: 00002.MPLS
Length: 1:15:37 (h:m:s)
Size: 19 362 490 368 bytes
Total Bitrate: 34,14 Mbps
VIDEO:
Кодек Bitrate Description
----- ------- -----------
MPEG-4 AVC Video 29999 kbps 1080p / 24 fps / 16:9 / High Profile 4.1
AUDIO:
Кодек Язык Bitrate Description
----- -------- ------- -----------
DTS-HD Master Audio Russian 2062 kbps 5.1 / 48 kHz / 2062 kbps / 16-bit (DTS Core: 5.1 / 48 kHz / 1152 kbps / 16-bit)
Dolby Digital Audio Russian 384 kbps 5.1 / 48 kHz / 384 kbps
FILES:
Name Time In Length Size Total Bitrate
---- ------- ------ ---- -------------
00005.M2TS 0:00:00.000 1:15:37.083 19 362 490 368 34 141
CHAPTERS:
Number Time In Length Avg Video Rate Max 1-Sec Rate Max 1-Sec Time Max 5-Sec Rate Max 5-Sec Time Max 10Sec Rate Max 10Sec Time Avg Frame Size Max Frame Size Max Frame Time
------ ------- ------ -------------- -------------- -------------- -------------- -------------- -------------- -------------- -------------- -------------- --------------
1 0:00:00.000 0:06:02.750 30 047 kbps 39 258 kbps 00:04:42.833 33 452 kbps 00:03:50.250 32 580 kbps 00:00:50.583 156 478 bytes 574 449 bytes 00:01:00.208
2 0:06:02.750 0:04:44.125 29 988 kbps 39 392 kbps 00:06:51.583 33 479 kbps 00:08:57.666 31 870 kbps 00:08:58.666 156 186 bytes 570 807 bytes 00:09:51.875
3 0:10:46.875 0:05:01.166 29 972 kbps 37 945 kbps 00:14:09.541 32 744 kbps 00:14:08.000 31 646 kbps 00:14:07.333 156 106 bytes 519 983 bytes 00:12:52.291
4 0:15:48.041 0:07:44.291 30 013 kbps 38 660 kbps 00:18:32.375 32 507 kbps 00:18:28.708 31 616 kbps 00:21:33.875 156 319 bytes 540 533 bytes 00:22:27.875
5 0:23:32.333 0:07:14.625 29 994 kbps 39 109 kbps 00:26:31.124 32 362 kbps 00:26:05.500 31 358 kbps 00:25:47.499 156 220 bytes 500 694 bytes 00:25:49.375
6 0:30:46.958 0:07:08.375 30 009 kbps 36 103 kbps 00:31:18.374 32 153 kbps 00:32:05.500 31 229 kbps 00:35:20.375 156 296 bytes 641 911 bytes 00:35:16.791
7 0:37:55.333 0:08:13.208 29 999 kbps 38 942 kbps 00:38:41.125 34 056 kbps 00:38:50.875 32 206 kbps 00:38:48.750 156 243 bytes 540 333 bytes 00:44:57.666
8 0:46:08.541 0:07:12.875 29 989 kbps 41 057 kbps 00:50:40.625 33 226 kbps 00:51:04.583 31 870 kbps 00:51:01.333 156 192 bytes 535 275 bytes 00:52:48.041
9 0:53:21.416 0:06:56.791 29 996 kbps 38 898 kbps 00:58:22.333 34 292 kbps 00:58:19.375 32 259 kbps 00:58:14.333 156 229 bytes 558 083 bytes 00:57:16.583
10 1:00:18.208 0:07:41.500 30 010 kbps 40 655 kbps 01:05:57.541 33 512 kbps 01:04:40.041 31 390 kbps 01:02:50.416 156 300 bytes 546 636 bytes 01:04:02.666
11 1:07:59.708 0:06:56.833 29 982 kbps 39 755 kbps 01:12:44.416 34 880 kbps 01:12:28.375 32 638 kbps 01:12:26.375 156 156 bytes 614 549 bytes 01:14:18.541
12 1:14:56.541 0:00:40.541 29 864 kbps 34 073 kbps 01:15:09.500 30 797 kbps 01:15:00.583 30 589 kbps 01:15:01.500 155 700 bytes 473 815 bytes 01:15:14.541
STREAM DIAGNOSTICS:
File PID Type Кодек Язык Seconds Bitrate Bytes Packets
---- --- ---- ----- -------- -------------- -------------- ------------- -----
00005.M2TS 4113 (0x1011) 0x1B AVC 4536,917 30 000 17 013 688 812 92 529 832
00005.M2TS 4352 (0x1100) 0x86 DTS-HD MA rus (Russian) 4536,917 2 062 1 169 178 608 6 888 377
00005.M2TS 4353 (0x1101) 0x81 AC3 rus (Russian) 4536,917 384 217 781 760 1 276 065
QUICK SUMMARY:
Disc Title: GADKIY_DUCKDisc Size: 23 822 356 044 bytesProtection: AACSBD-Java: NoPlaylist: 00002.MPLSSize: 19 362 490 368 bytesLength: 1:15:37Total Bitrate: 34,14 MbpsVideo: MPEG-4 AVC Video / 29999 kbps / 1080p / 24 fps / 16:9 / High Profile 4.1Audio: Russian / DTS-HD Master Audio / 5.1 / 48 kHz / 2062 kbps / 16-bit (DTS Core: 5.1 / 48 kHz / 1152 kbps / 16-bit)Audio: Russian / Dolby Digital Audio / 5.1 / 48 kHz / 384 kbps
********************PLAYLIST: 00003.MPLS********************Код:Total Video
Title Кодек Length Movie Size Disc Size Bitrate Bitrate Main Audio Track Secondary Audio Track
----- ------ ------- -------------- -------------- ------- ------- ------------------ ---------------------
00003.MPLS AVC 0:13:44 2 745 956 352 23 822 356 044 26,63 24,99 DD AC3 2.0 192Kbps
Код:DISC INFO:
Disc Title: GADKIY_DUCK
Disc Size: 23 822 356 044 bytes
Protection: AACS
BD-Java: No
BDInfo: 0.5.6
PLAYLIST REPORT:
Name: 00003.MPLS
Length: 0:13:44 (h:m:s)
Size: 2 745 956 352 bytes
Total Bitrate: 26,63 Mbps
VIDEO:
Кодек Bitrate Description
----- ------- -----------
MPEG-4 AVC Video 24993 kbps 1080p / 24 fps / 16:9 / High Profile 4.1
AUDIO:
Кодек Язык Bitrate Description
----- -------- ------- -----------
Dolby Digital Audio Russian 192 kbps 2.0 / 48 kHz / 192 kbps
Dolby Digital Audio Russian 192 kbps 2.0 / 48 kHz / 192 kbps
FILES:
Name Time In Length Size Total Bitrate
---- ------- ------ ---- -------------
00006.M2TS 0:00:00.000 0:13:44.875 2 745 956 352 26 631
CHAPTERS:
Number Time In Length Avg Video Rate Max 1-Sec Rate Max 1-Sec Time Max 5-Sec Rate Max 5-Sec Time Max 10Sec Rate Max 10Sec Time Avg Frame Size Max Frame Size Max Frame Time
------ ------- ------ -------------- -------------- -------------- -------------- -------------- -------------- -------------- -------------- -------------- --------------
1 0:00:00.000 0:13:44.875 24 993 kbps 32 496 kbps 00:02:43.624 27 875 kbps 00:03:17.500 27 323 kbps 00:03:16.458 130 171 bytes 709 679 bytes 00:01:11.666
STREAM DIAGNOSTICS:
File PID Type Кодек Язык Seconds Bitrate Bytes Packets
---- --- ---- ----- -------- -------------- -------------- ------------- -----
00006.M2TS 4113 (0x1011) 0x1B AVC 824,792 24 995 2 576 989 211 14 016 415
00006.M2TS 4352 (0x1100) 0x81 AC3 rus (Russian) 824,792 192 19 797 504 128 890
00006.M2TS 4353 (0x1101) 0x81 AC3 rus (Russian) 824,792 192 19 797 504 128 890
QUICK SUMMARY:
Disc Title: GADKIY_DUCKDisc Size: 23 822 356 044 bytesProtection: AACSBD-Java: NoPlaylist: 00003.MPLSSize: 2 745 956 352 bytesLength: 0:13:44Total Bitrate: 26,63 MbpsVideo: MPEG-4 AVC Video / 24993 kbps / 1080p / 24 fps / 16:9 / High Profile 4.1Audio: Russian / Dolby Digital Audio / 2.0 / 48 kHz / 192 kbpsAudio: Russian / Dolby Digital Audio / 2.0 / 48 kHz / 192 kbps
********************PLAYLIST: 00005.MPLS********************Код:Total Video
Title Кодек Length Movie Size Disc Size Bitrate Bitrate Main Audio Track Secondary Audio Track
----- ------ ------- -------------- -------------- ------- ------- ------------------ ---------------------
00005.MPLS AVC 0:04:59 724 555 776 23 822 356 044 19,33 14,93 LPCM 2.0 1536Kbps (48kHz/16-bit) LPCM 2.0 1536Kbps (48kHz/16-bit)
Код:DISC INFO:
Disc Title: GADKIY_DUCK
Disc Size: 23 822 356 044 bytes
Protection: AACS
BD-Java: No
BDInfo: 0.5.6
PLAYLIST REPORT:
Name: 00005.MPLS
Length: 0:04:59 (h:m:s)
Size: 724 555 776 bytes
Total Bitrate: 19,33 Mbps
VIDEO:
Кодек Bitrate Description
----- ------- -----------
MPEG-4 AVC Video 14925 kbps 1080i / 25 fps / 16:9 / High Profile 4.1
AUDIO:
Кодек Язык Bitrate Description
----- -------- ------- -----------
LPCM Audio Russian 1536 kbps 2.0 / 48 kHz / 1536 kbps / 16-bit
LPCM Audio Russian 1536 kbps 2.0 / 48 kHz / 1536 kbps / 16-bit
FILES:
Name Time In Length Size Total Bitrate
---- ------- ------ ---- -------------
00008.M2TS 0:00:00.000 0:04:59.799 724 555 776 19 334
CHAPTERS:
Number Time In Length Avg Video Rate Max 1-Sec Rate Max 1-Sec Time Max 5-Sec Rate Max 5-Sec Time Max 10Sec Rate Max 10Sec Time Avg Frame Size Max Frame Size Max Frame Time
------ ------- ------ -------------- -------------- -------------- -------------- -------------- -------------- -------------- -------------- -------------- --------------
1 0:00:00.000 0:04:59.799 14 925 kbps 29 985 kbps 00:01:12.200 20 811 kbps 00:00:33.279 17 715 kbps 00:00:00.639 74 627 bytes 400 861 bytes 00:01:12.240
STREAM DIAGNOSTICS:
File PID Type Кодек Язык Seconds Bitrate Bytes Packets
---- --- ---- ----- -------- -------------- -------------- ------------- -----
00008.M2TS 4113 (0x1011) 0x1B AVC 299,640 14 933 559 327 392 3 044 160
00008.M2TS 4352 (0x1100) 0x80 LPCM rus (Russian) 299,640 1 543 57 801 440 359 760
00008.M2TS 4353 (0x1101) 0x80 LPCM rus (Russian) 299,640 1 543 57 801 440 359 760
QUICK SUMMARY:
Disc Title: GADKIY_DUCKDisc Size: 23 822 356 044 bytesProtection: AACSBD-Java: NoPlaylist: 00005.MPLSSize: 724 555 776 bytesLength: 0:04:59Total Bitrate: 19,33 MbpsVideo: MPEG-4 AVC Video / 14925 kbps / 1080i / 25 fps / 16:9 / High Profile 4.1Audio: Russian / LPCM Audio / 2.0 / 48 kHz / 1536 kbps / 16-bitAudio: Russian / LPCM Audio / 2.0 / 48 kHz / 1536 kbps / 16-bit
********************PLAYLIST: 00004.MPLS********************Код:Total Video
Title Кодек Length Movie Size Disc Size Bitrate Bitrate Main Audio Track Secondary Audio Track
----- ------ ------- -------------- -------------- ------- ------- ------------------ ---------------------
00004.MPLS AVC 0:04:56 711 813 120 23 822 356 044 19,20 14,80 LPCM 2.0 1536Kbps (48kHz/16-bit) LPCM 2.0 1536Kbps (48kHz/16-bit)
Код:DISC INFO:
Disc Title: GADKIY_DUCK
Disc Size: 23 822 356 044 bytes
Protection: AACS
BD-Java: No
BDInfo: 0.5.6
PLAYLIST REPORT:
Name: 00004.MPLS
Length: 0:04:56 (h:m:s)
Size: 711 813 120 bytes
Total Bitrate: 19,20 Mbps
VIDEO:
Кодек Bitrate Description
----- ------- -----------
MPEG-4 AVC Video 14797 kbps 1080i / 25 fps / 16:9 / High Profile 4.1
AUDIO:
Кодек Язык Bitrate Description
----- -------- ------- -----------
LPCM Audio Russian 1536 kbps 2.0 / 48 kHz / 1536 kbps / 16-bit
LPCM Audio Russian 1536 kbps 2.0 / 48 kHz / 1536 kbps / 16-bit
FILES:
Name Time In Length Size Total Bitrate
---- ------- ------ ---- -------------
00007.M2TS 0:00:00.000 0:04:56.559 711 813 120 19 202
CHAPTERS:
Number Time In Length Avg Video Rate Max 1-Sec Rate Max 1-Sec Time Max 5-Sec Rate Max 5-Sec Time Max 10Sec Rate Max 10Sec Time Avg Frame Size Max Frame Size Max Frame Time
------ ------- ------ -------------- -------------- -------------- -------------- -------------- -------------- -------------- -------------- -------------- --------------
1 0:00:00.000 0:04:56.559 14 797 kbps 28 370 kbps 00:00:08.399 23 486 kbps 00:00:05.360 20 252 kbps 00:00:04.200 73 986 bytes 392 694 bytes 00:02:28.880
STREAM DIAGNOSTICS:
File PID Type Кодек Язык Seconds Bitrate Bytes Packets
---- --- ---- ----- -------- -------------- -------------- ------------- -----
00007.M2TS 4113 (0x1011) 0x1B AVC 296,440 14 803 548 531 050 2 985 480
00007.M2TS 4352 (0x1100) 0x80 LPCM rus (Russian) 296,440 1 543 57 192 192 355 968
00007.M2TS 4353 (0x1101) 0x80 LPCM rus (Russian) 296,440 1 543 57 192 192 355 968

QUICK SUMMARY:
Disc Title: GADKIY_DUCKDisc Size: 23 822 356 044 bytesProtection: AACSBD-Java: NoPlaylist: 00004.MPLSSize: 711 813 120 bytesLength: 0:04:56Total Bitrate: 19,20 MbpsVideo: MPEG-4 AVC Video / 14797 kbps / 1080i / 25 fps / 16:9 / High Profile 4.1Audio: Russian / LPCM Audio / 2.0 / 48 kHz / 1536 kbps / 16-bitAudio: Russian / LPCM Audio / 2.0 / 48 kHz / 1536 kbps / 16-bit

Бонус


http://piratpic.net/images/6/gbzkm.jpg
Похожие файлы
Загрузка / Обновление
КатегорияМультфильмы RSS лента
Просмотров456 раз (a)
Взят6 раз (a)
Файлы61
Размер22.19 GB (23,822,356,044 байт)
Добавлен
РаздалViKa  (Искать торренты)
Участники
Участники - Загрузка / Обновление
Просматривают Просматривают Загрузка...

-†- ¿? -†-
« Предыдущая - † Страница † - Следующая »

:: Список Комментариев
Нет комментариев.

 Нет комментариев
Вам запрещенно редактировать, создать или удалять комментарии.
shpv© 2007-2014
Страничка сформирована за 0.284 секунд.
Яндекс.Метрика Rambler's Top100