скачать торрент трекер Friends
 
 Главная  •  Торренты  •  Новые релизы  •  Форум  •   •  Персоны кино  •  Правила  •  ЧаВо

Язык интерфейса
Язык интерфейса:


Привет, Гость
[15] из [15]
Введите Логин:
Введите Пароль:
Регистрация
Восстановить Пароль

Линки
АнекдотыБанкоматВсе теги / меткиДополнительные услугиТехподдержка

Главное Меню
 Главная Торренты Релизы за сегодня Персоны кино Запросы / Предложения (3) Правила ЧаВо Проверка BB кодов Топ 10 Архив новостей Прошлые опросы Форматы файлов Группы Последние комментарии Техподдержка

:: Детали раздачи
Торрент раздача является мультитрекерной — учтите, количество раздающих не будет совпадать с количеством участников на сайте (скачивание на клиентской стороне зависит от настроек uTorrent клиент программы, настройки -> Включить DHT, Обмен пирами и Поиск лок-х пиров).
Если висит надпись, пиры по нулям - не бойтесь, возможность скачать повторно торрент раздачу - есть. Попробуйте, в случае отказа - прокоментируйте или нажмите на "Позвать скачавших".

Письма на стекле / Серии: 1-16 из 16 (Рената Грицкова) [2014, Мелодрама, HDTV 1080i] :: RuTracker.org

Скачать
Магнет
ПомощьКак скачать раздачу
Поделиться
Теги / Меткимелодрама
Постер
ОписаниеГод выпуска: 2014
Производство: Россия, Грин-фильм, Приор Про
Жанр: Мелодрама
Продолжительность: ~0:51:00 серия
Субтитры: нет

Режиссёр: Рената Грицкова

В ролях: Ольга Иванова, Никита Тезин, Мария Порошина, Сергей Никоненко, Юрий Батурин, Алика Смехова, Александра Мареева, Софья Карабулина, Александр Нестеров, Наталья Ткаченко

Описание: Алина Алферова — красивая и скромная девушка, работает медсестрой в городской больнице небольшого провинциального городка. Однажды она знакомится с племянником одной из пациенток — Максимом. Между молодыми людьми сразу возникает взаимное чувство. Максим окружает Алину заботой и вниманием. Каждую ночь он оставляет на окне Алины любовные послания, а утром она, согрев дыханием стекло, читает его письма. Но у Алины появляется соперница…

Все раздачи сериала: Письма на стекле

http://i29.fastpic.ru/big/2011/1030/ea/b1cf2ef64e49d1b69670beab9a74f7ea.png

Качество: HDTV 1080i
Формат: TS
Видео кодек: H.264
Аудио кодек: MP2
Видео: MPEG4 Video (H264) 1920x1080, ~ 7943 Кбит/с, 25.00fps 0.153 bit/pixel
Аудио: MP2, 2 канала, 48,0 КГц, ~256 kbps

Сторонней рекламы нет!

MediaInfo


ОбщееИдентификатор : 1 (0x1)Полное имя : H:\Письма на стекле HDTV 1080i\Письма на стекле 01_серия_HDTV_1080i.tsФормат : MPEG-TSРазмер файла : 2,63 ГбайтПродолжительность : 43 м.Общий поток : 8628 Кбит/сек

ВидеоИдентификатор : 1000 (0x3E8)Идентификатор меню : 1 (0x1)Формат : AVCФормат/Информация : Advanced Video CodecПрофиль формата : High@L4.0Параметр CABAC формата : ДаПараметр ReFrames формата : 4 кадраИдентификатор кодека : 27Продолжительность : 43 м.Битрейт : 7943 Кбит/секШирина : 1920 пикс.Высота : 1080 пикс.Соотношение сторон : 16:9Частота кадров : 25,000 кадр/секЦветовое пространство : YUVПодвыборка цветности : 4:2:0Битовая глубина : 8 битТип развёртки : MBAFFБит/(Пиксели*Кадры) : 0.153Размер потока : 2,42 Гбайт (92%)

АудиоИдентификатор : 1101 (0x44D)Идентификатор меню : 1 (0x1)Формат : MPEG AudioВерсия формата : Version 1Профиль формата : Layer 2Идентификатор кодека : 3Продолжительность : 43 м.Вид битрейта : ПостоянныйБитрейт : 256 Кбит/секКаналы : 2 каналаЧастота : 48,0 КГцМетод сжатия : С потерямиРазмер потока : 79,9 Мбайт (3%)Язык : English


Раздача группы: http://i1.imageban.ru/out/2013/12/25/6757870fb792b4dbe53d867619848c94.png

Отдельное спасибо [b]nikolspup[/b] за предоставление материала.

Внимание ! Раздача ведётся путём добавления новых серий
Внимание! Раздача ведётся путём добавления новых серий; при каждом добавлении создётся новый торрент. Чтобы начать докачку новой серии, пользователям необходимо сделать следующее:
(1) остановить скачивание,
(2) удалить старый торрент у себя из клиента (старые серии удалять не надо),
(3) скачать новый торрент и запустить его у себя в клиенте вместо старого, при этом указать клиенту путь в старую папку куда и должно происходить скачивание новых серий.
Ваш клиент при этом должен произвести хеширование (проверку) старой папки (если не производит сам - помогите ему сделать это), и будет докачивать только те серии которых у вас ещё нет. Старые серии при этом не удаляются, а продолжают раздаваться!
Eсли вы уже удалили старые серии, то предотвратить повторную закачку старых серий можно, отжав галочку в соответсвующих местах при запуске нового торрента. По возможности, желательно не удалять старые серии как можно дольше чтобы релизёр не столько продолжал раздавать старые серии, а смог сконцентрироваться на новых.

ВНИМАНИЕ! ТОРРЕНТ ПЕРЕЗАЛИТ! ДОБАВЛЕНА 13-ая - 16-ая СЕРИИ!

Скриншоты
http://i66.fastpic.ru/thumb/2014/0826/21/93153da98ba70a8e3fd007a9abaa1a21.jpeg http://i66.fastpic.ru/thumb/2014/0826/db/_300ae4c2bda4214b0ae540450c6243db.jpeg http://i66.fastpic.ru/thumb/2014/0826/df/ee924a2c98cd102e6547b76bcf0b5adf.jpeg http://i66.fastpic.ru/thumb/2014/0826/de/_dfff0e8dadafb409ec655ac032af23de.jpeg

http://i17.fastpic.ru/big/2011/0302/93/84d6588c7f6e1cc66b53d3103e74fa93.gif[/img][img]http://s60.radikal.ru/i170/1007/6a/664e8d89abdf.gif
Похожие файлы
Загрузка / Обновление
КатегорияРазное / Прочее RSS лента
Просмотров613 раз (a)
Взят1 раз (a)
Файлы16
Размер40.89 GB (43,900,457,348 байт)
Добавлен
РаздалViKa  (Искать торренты)
Участники
Участники - Загрузка / Обновление
Просматривают Просматривают Загрузка...

-†- ¿? -†-
« Предыдущая - † Страница † - Следующая »

:: Список Комментариев
Нет комментариев.

 Нет комментариев
Вам запрещенно редактировать, создать или удалять комментарии.
shpv© 2007-2014
Страничка сформирована за 0.126 секунд.
Яндекс.Метрика Rambler's Top100