скачать торрент трекер Friends
 
 Главная  •  Торренты  •  Новые релизы  •  Форум  •   •  Персоны кино  •  Правила  •  ЧаВо

Язык интерфейса
Язык интерфейса:


Привет, Гость
[15] из [15]
Введите Логин:
Введите Пароль:
Регистрация
Восстановить Пароль

Линки
АнекдотыБанкоматВсе теги / меткиДополнительные услугиТехподдержка

Главное Меню
 Главная Торренты Релизы за сегодня Персоны кино Запросы / Предложения (3) Правила ЧаВо Проверка BB кодов Топ 10 Архив новостей Прошлые опросы Форматы файлов Группы Последние комментарии Техподдержка

:: Детали раздачи
Торрент раздача является мультитрекерной — учтите, количество раздающих не будет совпадать с количеством участников на сайте (скачивание на клиентской стороне зависит от настроек uTorrent клиент программы, настройки -> Включить DHT, Обмен пирами и Поиск лок-х пиров).
Если висит надпись, пиры по нулям - не бойтесь, возможность скачать повторно торрент раздачу - есть. Попробуйте, в случае отказа - прокоментируйте или нажмите на "Позвать скачавших".

Невероятные приключения Алины / Серии: 1-4 из 4 (Виктория Держицкая) [2014, Детектив, приключения, HDTVRip] :: RuTracker.org

Скачать
Магнет
ПомощьКак скачать раздачу
Поделиться
Теги / Меткидетектив, приключения
Постер
ОписаниеГод выпуска: 2014
Производство: Россия, Рекун-синема
Жанр: Детектив, приключения
Продолжительность: ~ 00:45:00
Субтитры: нет

Режиссёр: Виктория Держицкая

В ролях: Эльвира Болгова, Никита Зверев, Варя Суровцева, Михаил Тяжев, Олег Кассин, Владимир Капустин, Мария Баева, Николай Разуменко

Описание: Писательница приключенческих романов Алина Троянская уже несколько лет не выходит из дома. Ее жилище похоже на крепость из сказки про трех поросят. Но однажды незнакомцы крадут осторожную писательницу и силой везут на поиски пугачевского клада по маршруту, описанному в последнем романе Троянской. Кладоискатели уверены, что Алина выведет их к сокровищам. Они не подозревают, что клад стережет людоед — в ловушке, из которой нет выхода…

Все раздачи сериала: http://rutracker.org/forum/tracker.php?nm=%D0%9D%D0...0%B8%D0%BD%D1%8B
Сэмпл: http://multi-up.com/980044

Качество: HDTVRip
Формат: AVI
Видео кодек: XviD
Аудио кодек: MP3
Видео: MPEG4, XviD, 720x400 (16:9), 25.000 fps, ~ 2 079 Kbps (0.289 bit/pixel)
Аудио: MP3, 48.0 KHz, 2 ch, 128 Kbps, CBR

MI
Общее
Полное имя : K:\Neveroyatnie.Priklucheniya.Aliny.s.HDTVRip\Neveroyatnie.Priklucheniya.Aliny.s.01.HDTVRip.avi
Формат : AVI
Формат/Информация : Audio Video Interleave
Размер файла : 1,36 Гбайт
Продолжительность : 1 ч. 28 м.
Общий поток : 2216 Кбит/сек
Программа кодирования : VirtualDubMod 1.5.10.3 | www.virtualdub-fr.org || (build 2550/release)
Библиотека кодирования : VirtualDubMod build 2550/release

Видео
Идентификатор : 0
Формат : MPEG-4 Visual
Профиль формата : Advanced Simple@L5
Параметр BVOP формата : 2
Параметр QPel формата : Нет
Параметр GMC формата : Без точки перехода
Параметр матрицы формата : Default (H.263)
Идентификатор кодека : XVID
Идентификатор кодека/Подсказка : XviD
Продолжительность : 1 ч. 28 м.
Битрейт : 2079 Кбит/сек
Ширина : 720 пикселей
Высота : 400 пикселей
Соотношение сторон : 16:9
Частота кадров : 25,000 кадров/сек
Цветовое пространство : YUV
Субдискретизация насыщенности : 4:2:0
Битовая глубина : 8 бит
Тип развёртки : Прогрессивная
Метод сжатия : С потерями
Бит/(Пиксели*Кадры) : 0.289
Размер потока : 1,28 Гбайт (94%)
Библиотека кодирования : XviD 1.2.1 (UTC 2008-12-04)

Аудио
Идентификатор : 1
Формат : MPEG Audio
Версия формата : Version 1
Профиль формата : Layer 3
Режим : Joint stereo
Расширение режима : MS Stereo
Идентификатор кодека : 55
Идентификатор кодека/Подсказка : MP3
Продолжительность : 1 ч. 28 м.
Вид битрейта : Постоянный
Битрейт : 128 Кбит/сек
Каналы : 2 канала
Частота : 48,0 КГц
Метод сжатия : С потерями
Размер потока : 80,7 Мбайт (6%)
Выравнивание : Соединение по промежуткам
Продолжительность промежутка : 40 мс. (1,00 видеокадр)
Время предзагрузки промежутка : 504 мс.
Библиотека кодирования : LAME3.99r
Настройки программы : -m j -V 4 -q 9 -lowpass 17 -b 128


Скриншоты
http://i63.fastpic.ru/big/2014/0613/7d/8b231ce3e4fb0c873015e4f385e6277d.jpg
http://i62.fastpic.ru/big/2014/0613/c2/3a1d240ae0ea3111929b765dbd403cc2.jpg
http://i61.fastpic.ru/big/2014/0613/d8/f68a1a0520f0b693006cd248f3a8dfd8.jpg
http://i64.fastpic.ru/big/2014/0613/9d/67c3badb1050014508f72fb402eeee9d.jpg
http://i64.fastpic.ru/big/2014/0613/a4/d2e0cb59e0166d08467a53e5d80a8fa4.jpg
Скриншоты
Похожие файлы
Загрузка / Обновление
КатегорияРазное / Прочее RSS лента
Просмотров688 раз (a)
Взят4 раз (a)
Файлы4
Размер5.46 GB (5,864,525,824 байт)
Добавлен
РаздалViKa  (Искать торренты)
Участники
Участники - Загрузка / Обновление
Просматривают Просматривают Загрузка...

-†- ¿? -†-
« Предыдущая - † Страница † - Следующая »

:: Список Комментариев
Нет комментариев.

 Нет комментариев
Вам запрещенно редактировать, создать или удалять комментарии.
shpv© 2007-2014
Страничка сформирована за 0.134 секунд.
Яндекс.Метрика Rambler's Top100